Download Now

Igor Ledochowski - Advanced Ericksonian Hypnosis Mentoring

Igor Ledochowski - Advanced Ericksonian Hypnosis Mentoring
18xDVDRip's | English | MP4 + PDF Guide | 480 x 276 | AVC ~170 kbps | 29.970 fps
AAC 132 Kbps 44.1 KHz | 2 channels | ~30 hours | 3.91 GB
Genre: eLearning Video / Self Improvement, Hypnosis

This is for people who've already gone through Igor's 'Advanced Ericksonian Hypnotherapy' 28 DVD program. This was recorded to add depth to those learnings and expands on them. Contains complete transcript for all 18 DVDs.

Includes:

DVD 01: Ericksonian Mentoring & Deep Ericksonian Philosophy
DVD 02: A More Intense And Powerful Version of "H+" Revealed
DVD 03: Power Pauses & Ericksonian Resourcing Demonstration
DVD 04: Opening "Hypnotic Doors" & Bonus MId-Induction Coaching Audios
DVD 05: 6 Ericksonian Tools & The "objective Review" Principle
DVD 06: Priming Deep Trance Phenomena & Hallucination Training Demonstration
DVD 07: Non-Therapeutic Generative Changes with Demonstration
DVD 08: Developing Unconscious Signals & Boosting the Responsiveness of the Unconscious
DVD 09: Amnesia, Hypnotic Language Drills & the Dueling Hypnotists
DVD 10: Digging for Gold, Demonstration of a "Problem Client" & Generative Change Dreaming
DVD 11: "Fail-Safe" Arm Levitation Theory & Unconscious Moments
DVD 12: Finding & Using Unconscious Moments with Demonstration
DVD 13: How to Get a Client Motivated for Therapy & a Model for Ericksonian Therapy Deconstructed
DVD 14: Solving Hypnotherapy Problems & How to Use the "Dreaming Arm" for Physical Issues
DVD 15: Live Client Session Demonstration with Coaching
DVD 16: 6 styles of metaphors & How to Use Them for Amnesia and the Post Hypnotic Suggestion Protocol
DVD 17: How to Construct an Ericksonian Hypnotherapy Program Using "Weight Loss" as an Example
DVD 18: Deep Trance Identification with Demonstration & Coaching

General
Complete name : DVD09AEHM - Chapter 02.mp4
Format : MPEG-4
Format profile : Base Media / Version 2
Codec ID : mp42 (mp42/isom/avc1)
File size : 48.3 MiB
Duration : 22 min 0 s
Overall bit rate mode : Variable
Overall bit rate : 307 kb/s
Encoded date : UTC 2014-03-06 14:23:33
Tagged date : UTC 2014-03-06 14:33:08
Writing application : HandBrake 0.9.9 2013052900

Video
ID : 1
Format : AVC
Format/Info : Advanced Video Codec
Format profile : [email protected]
Format settings : CABAC / 4 Ref Frames
Format settings, CABAC : Yes
Format settings, RefFrames : 4 frames
Codec ID : avc1
Codec ID/Info : Advanced Video Coding
Duration : 22 min 0 s
Bit rate : 170 kb/s
Width : 480 pixels
Height : 276 pixels
Display aspect ratio : 1.734
Original display aspect ratio : 1.733
Frame rate mode : Constant
Frame rate : 29.970 (30000/1001) FPS
Color space : YUV
Chroma subsampling : 4:2:0
Bit depth : 8 bits
Scan type : Progressive
Bits/(Pixel*Frame) : 0.043
Stream size : 26.8 MiB (55%)
Writing library : x264 core 130 r2273 b3065e6
Encoding settings : cabac=1 / ref=1 / deblock=1:0:0 / analyse=0x1:0x111 / me=hex / subme=2 / psy=1 / psy_rd=1.00:0.00 / mixed_ref=0 / me_range=16 / chroma_me=1 / trellis=0 / 8x8dct=0 / cqm=0 / deadzone=21,11 / fast_pskip=1 / chroma_qp_offset=0 / threads=3 / lookahead_threads=1 / sliced_threads=0 / nr=0 / decimate=1 / interlaced=0 / bluray_compat=0 / constrained_intra=0 / bframes=3 / b_pyramid=2 / b_adapt=1 / b_bias=0 / direct=1 / weightb=1 / open_gop=0 / weightp=1 / keyint=300 / keyint_min=30 / scenecut=40 / intra_refresh=0 / rc_lookahead=10 / rc=crf / mbtree=1 / crf=20.0 / qcomp=0.60 / qpmin=0 / qpmax=69 / qpstep=4 / vbv_maxrate=20000 / vbv_bufsize=25000 / crf_max=0.0 / nal_hrd=none / ip_ratio=1.40 / aq=1:1.00
Encoded date : UTC 2014-03-06 14:23:33
Tagged date : UTC 2014-03-06 14:33:08
Color range : Limited
Color primaries : BT.601 NTSC
Transfer characteristics : BT.709
Matrix coefficients : BT.601

Audio
ID : 2
Format : AAC
Format/Info : Advanced Audio Codec
Format profile : LC
Codec ID : mp4a-40-2
Duration : 22 min 0 s
Bit rate mode : Variable
Bit rate : 132 kb/s
Maximum bit rate : 224 kb/s
Channel(s) : 2 channels
Channel positions : Front: L R
Sampling rate : 44.1 kHz
Frame rate : 43.066 FPS (1024 SPF)
Compression mode : Lossy
Stream size : 20.7 MiB (43%)
Title : Stereo
Language : English
Encoded date : UTC 2014-03-06 14:23:33
Tagged date : UTC 2014-03-06 14:33:07

Screenshots


Igor Ledochowski - Advanced Ericksonian Hypnosis Mentoring

Igor Ledochowski - Advanced Ericksonian Hypnosis Mentoring

Igor Ledochowski - Advanced Ericksonian Hypnosis Mentoring


Download link:



Links are Interchangeable - No Password - Single Extraction

Mirror Links

Direct Download

Tags: Ledochowski, Advanced, Ericksonian, Hypnosis, Mentoring

Comments
Name:*
E-Mail:*
Add Comments:
Enter Code: *
Blue Gate Crossing (Movie) | Cadastro e Login | Alternative